#TITLE:Honey, Do It Tonight!;
#SUBTITLE:;
#ARTIST:Good-Cool;
#TITLETRANSLIT:;
#SUBTITLETRANSLIT:;
#ARTISTTRANSLIT:;
#CREDIT:;
#BANNER:honey-banner.png;
#BACKGROUND:Honey-bg.png;
#LYRICSPATH:;
#CDTITLE:;
#MUSIC:Honey Do It Tonight.mp3;
#MUSICLENGTH:97.854;
#OFFSET:0.860;
#SAMPLESTART:74.685;
#SAMPLELENGTH:12.000;
#SELECTABLE:YES;
#BPMS:0.000=130.040;
#STOPS:;
#BGCHANGES:;
#FIRSTBEAT:4.000;

#LASTBEAT:211.500;

#SONGFILENAME:Songs/ERICth The 3rd/Honey Do It Tonight/Honey Do It Tonight.sm;

#HASMUSIC:1;

#HASBANNER:1;


//---------------dance-single - MANIAC----------------
#NOTES:
     dance-single:
     MANIAC:
     hard:
     7:
     0.466,0.459,0.286,0.061,0.066,285.000,28.000,6.000,0.000,0.000:

0000
0000
0000
0000
,
0001
0000
0010
0000
0100
0000
1000
0000
0100
0010
0000
0100
0000
0010
0100
0000
,
0000
1000
0100
0000
1001
0001
1000
0010
,
0000
0000
1000
0000
0010
0000
0100
0000
0001
0100
0000
0001
0000
0100
0001
0000
,
0000
0100
0010
0000
1010
1000
0001
0000
,
0001
0000
0010
0000
0100
0000
1000
0000
0100
0010
0000
0100
0000
0010
0100
0000
,
0000
1000
0100
0000
1001
0001
1000
0010
,
0000
0000
1000
0000
0010
0000
0100
0000
0001
0100
0000
0001
0000
0100
0001
0000
,
0000
0100
0010
0000
1010
1000
0001
0000
,
0000
0000
0100
1000
0001
0100
0000
0100
,
0000
0010
0001
1000
0100
1000
0010
0001
,
0010
0000
1000
0000
0100
0010
0001
0000
,
0001
0010
0100
0000
1000
0000
1010
0000
,
0000
0001
0100
0010
0100
0001
0000
1000
,
0100
1000
0010
0010
0001
0000
0001
0000
,
0200
0010
0001
0010
,
1000
0000
0010
0300
0000
1000
0000
0010
,
0001
0000
1000
0010
0001
0010
0000
1000
,
0000
1000
0100
0000
1001
0000
0000
0001
,
0010
0001
0100
0001
0010
0001
0000
0100
,
0010
0011
1100
0000
,
0010
0001
1000
0100
0010
0100
0000
0000
,
0010
0001
1000
0010
0100
0010
0000
0000
,
1000
0010
0100
0001
0100
0010
1000
0100
,
1000
0100
1000
0000
0000
0000
0101
0000
,
0001
0000
1000
0000
0100
0100
0001
0000
,
1000
0000
0001
0000
0100
0100
1000
0000
,
0100
0001
1000
0010
0100
0001
0011
0000
,
0002
0023
2030
3200
,
0301
0100
1000
0100
0001
0100
1000
0100
,
0001
0100
0010
1000
,
0001
0000
0100
0010
0001
0001
1000
0000
,
1010
1010
0010
0000
0011
0000
1010
0000
,
0100
1000
0100
0000
0000
0010
0001
1000
,
0000
1100
0000
0101
0000
1100
0000
0000
,
1000
0010
0001
0000
1000
0100
0001
0100
,
0000
0001
0010
0100
0000
0000
0000
0000
,
1010
0000
0101
0000
0000
1000
0100
0010
,
0000
0001
0000
1000
0000
0100
0000
1000
,
0100
0000
0010
0000
0010
0001
1000
0100
,
0010
0100
0001
0000
0110
0000
1001
0000
,
0100
1000
0100
0000
0000
0010
0001
1000
,
0000
1100
0000
0101
0000
1100
0000
0000
,
1000
0010
0001
0000
1000
0100
0001
0100
,
0000
0001
0010
0100
0000
0000
0000
0000
,
1010
0000
0101
0000
0000
1000
0100
0010
,
0000
0001
0000
1000
0000
0100
0000
1000
,
0100
0000
0010
0000
0010
0001
1000
0100
,
0010
0100
0001
0000
0110
0000
1001
0000
,
0100
0010
0001
0000
0001
0100
1000
0000
,
1000
0010
0001
0000
0100
0001
1000
0000
,
0010
0001
1000
0000
0010
0100
0010
0000
,
0100
0000
0010
0200
0000
0000
0000
0000
0000
0000
0000
0000
0000
0000
0300
0000
,;

//---------------dance-single - ANOTHER----------------
#NOTES:
     dance-single:
     ANOTHER:
     medium:
     4:
     0.353,0.350,0.031,0.031,0.000,236.000,3.000,3.000,0.000,0.000:

0000
0000
0000
0000
,
1000
0100
0100
1000
,
0001
0000
1000
0000
0100
0010
0100
0000
,
0001
1000
0010
1000
,
0001
0000
0100
0000
0010
1000
0001
0000
,
0010
0100
1000
0001
,
0100
0000
0010
0000
0001
1000
0001
0000
,
0100
0010
0001
1000
,
0010
0000
1000
0000
0010
1000
0001
0100
,
0010
1000
0100
0010
,
0001
0001
1000
0010
,
0100
0001
1000
0010
,
1000
1000
0001
0001
,
0010
0100
1000
0001
,
0100
0001
0010
1000
,
0010
1000
0100
0010
,
0001
1000
0001
0000
0100
0000
0010
0000
,
0010
1000
0100
0010
,
0100
0000
1000
0001
0100
0000
0001
1000
,
0100
0010
0100
0100
,
0020
0000
0000
0000
0001
0000
0001
0030
,
0001
1000
0100
0010
,
0010
0010
1000
0001
,
0100
0001
1000
0010
,
1000
0100
0011
1100
,
0101
0001
0100
1000
,
0010
0100
0001
1000
,
0010
1000
0100
0000
0010
0001
0100
0000
,
0020
1030
0001
0100
,
0010
0000
0100
0000
0010
0001
1000
0100
,
0010
0001
1000
0010
,
1000
0010
1000
0000
0001
0010
0001
0000
,
1000
1000
1000
0000
0001
0000
0010
0000
,
0100
1000
0010
0000
0000
0100
0010
0001
,
0000
1000
0000
0100
0000
0010
0000
0000
,
0001
0000
1000
0000
0000
0010
1000
0100
,
0000
0100
0001
1000
0000
0000
0000
0000
,
0010
0000
0001
0000
0000
0100
1000
0010
,
0000
0100
0010
0100
0000
0001
0000
0000
,
0100
0000
1000
0000
0000
0010
0001
0100
,
0000
0001
1000
0000
0010
0000
0100
0000
,
0001
0000
1000
0000
0100
0010
0001
1000
,
0000
0010
0000
0100
0000
0010
0000
0000
,
0001
0000
1000
0000
0001
0100
0010
0100
,
0000
0001
1000
0100
0000
0000
0001
0000
,
0010
0000
0100
0000
0000
0010
1000
0010
,
0000
0100
0000
0001
0000
0010
0100
0000
,
1000
0000
0001
0000
1000
0010
0100
0001
,
1000
0100
0010
0100
1000
0001
0100
0010
,
1000
0100
0010
0001
,
1000
0010
0100
0000
0001
0010
0100
0000
,
1000
0000
0001
0000
0100
0001
1000
0000
,
0020
0000
1000
0000
0000
0030
0000
0000
,;

//---------------dance-single - BASIC----------------
#NOTES:
     dance-single:
     BASIC:
     easy:
     1:
     0.112,0.162,0.000,0.010,0.000,76.000,0.000,1.000,0.000,0.000:

0000
0000
0000
0000
,
0010
0000
0000
0000
,
0100
0000
0000
0000
,
0001
0000
0000
0000
,
0100
0000
0000
0000
,
0010
0000
0000
0000
,
0100
0000
0000
0000
,
1000
0000
0000
0000
,
0100
0000
0000
0000
,
1000
1000
0000
0000
,
0000
0000
0000
0000
,
0001
0001
0000
0000
,
0000
0000
0000
0000
,
0010
0010
0000
0000
,
0000
0000
0000
0000
,
0100
0100
0000
0000
,
0100
0000
0100
0000
,
0001
0000
0000
0000
,
1000
0000
0010
0000
,
0001
0000
0000
0000
,
0010
0000
0100
0000
,
1000
0000
0000
0000
,
0001
0000
0000
0000
,
1000
0001
1000
0001
,
1000
0001
0010
0010
,
0010
0000
0000
0000
,
0100
0000
0000
0000
,
0001
0000
0010
0000
,
1000
0000
0010
0000
,
0001
0000
0000
0000
,
1000
0000
0000
0000
,
0010
0000
0000
0000
,
0100
0000
0000
0000
,
0100
0000
0000
0000
,
0100
0000
0000
0000
,
0100
0000
0000
0000
,
0100
0000
0000
0000
,
0010
0000
0000
0000
,
0001
0000
0000
0000
,
1000
0000
0000
0000
,
0010
0000
0000
0000
,
0001
0000
0010
0000
,
1000
0000
0100
0000
,
0001
0000
0010
0000
,
1000
0000
0100
0000
,
0010
0000
1000
0000
,
0100
0000
0001
0000
,
0010
0000
1000
0000
,
0100
0000
0001
0001
,
1000
0000
0000
1000
,
0001
0000
0000
0001
,
0010
0000
0000
0100
,
0020
0000
0000
0030
,;
